<?xml version="1.0" standalone="no"?>
<!DOCTYPE svg PUBLIC "-//W3C//DTD SVG 1.1//EN" "http://www.w3.org/Graphics/SVG/1.1/DTD/svg11.dtd">
<svg xmlns="http://www.w3.org/2000/svg">
<metadata>Copyright (C) 2017 by original authors @ fontello.com</metadata>
<defs>
<font id="fontello" horiz-adv-x="1000" >
<font-face font-family="fontello" font-weight="400" font-stretch="normal" units-per-em="1000" ascent="850" descent="-150" />
<missing-glyph horiz-adv-x="1000" />
<glyph glyph-name="about_kuoni_arrow_next_news-01" unicode="&#xe800;" d="M833 350l-665-500v1000l665-500z" horiz-adv-x="1000" />

<glyph glyph-name="store_detail_icon_calendar_new-01" unicode="&#xe801;" d="M625 445h-62c-15 0-28-12-28-27v-63c0-15 13-27 28-27h62c15 0 28 12 28 27v63c-3 15-13 27-28 27l0 0z m185 0h-62c-15 0-28-12-28-27v-63c0-15 13-27 28-27h62c15 0 28 12 28 27v63c0 15-13 27-28 27l0 0z m-555-357h-62c-15 0-28-13-28-28v-60c0-15 13-28 28-28h62c15 0 28 13 28 28v63c0 12-13 25-28 25l0 0z m185 0h-62c-15 0-28-13-28-28v-60c0-15 13-28 28-28h62c15 0 28 13 28 28v63c0 12-13 25-28 25l0 0z m-250 62h63c15 0 27 13 27 28v62c0 15-12 28-27 28h-63c-15 0-27-13-27-28v-62c2-15 12-28 27-28l0 0z m188 0h62c15 0 28 13 28 28v62c0 15-13 28-28 28h-62c-15 0-28-13-28-28v-62c0-15 10-28 28-28l0 0z m247 118h-62c-15 0-28-13-28-28v-62c0-15 13-28 28-28h62c15 0 28 13 28 28v62c-3 15-13 28-28 28l0 0z m185 0h-62c-15 0-28-13-28-28v-62c0-15 13-28 28-28h62c15 0 28 13 28 28v62c0 15-13 28-28 28l0 0z m158 500h-95v-93c0-32-28-60-60-60h-65c-33 0-60 28-60 60v93h-95v-93c0-32-28-60-60-60h-65c-33 0-60 28-60 60v93h-95v-93c0-32-28-60-60-60h-63c-32 0-57 28-57 60v93h-98c-17 0-30-13-30-28v-865c0-15 13-28 28-28h935c15 0 27 13 27 28v868c-2 12-12 25-27 25z m-43-851h-847v578h847v-578z m-735 933c-15 0-27-12-27-27v-148c0-12 12-25 27-25h65c15 0 28 13 28 28v145c0 15-13 27-28 27h-65z m278 0c-15 0-28-12-28-27v-148c0-15 13-27 28-27h65c15 0 27 12 27 27v148c0 15-12 27-27 27h-65z m345 0h-65c-15 0-28-12-28-27v-148c0-15 13-27 28-27h65c15 0 27 12 27 27v148c-2 15-12 27-27 27l0 0z" horiz-adv-x="1000" />

<glyph glyph-name="ship" unicode="&#xe802;" d="M299 496c0 0 16 82 76 101 59 20 82 13 99 6s40-43 40-43-59 10-109-7c-51-18-106-57-106-57m-20-64l-26-85-115-57c0 0-21-14-38-42-16-27-23-49-23-49l54 15 23 36c0 0 160 80 192 100 33 21 127 81 127 81l7 30c0 0 120 78 191 82 72 4 88-1 109-5 21-4 40-13 40-13l6-28c0 0-61 25-143 16-82-9-137-46-137-46l-7-40c0 0 80 44 145 43 65-1 94-3 116-6 23-3 33-6 33-6l8-21 44-7-24 94c0 0 3 33-47 49-51 17-129 20-197 2-68-17-116-53-116-53s-68 0-128-28-94-62-94-62m-248-281c0 0 263 78 343 118 79 39 256 123 357 130 100 6 142 2 184-10 41-12 48-36 48-51 0-16-6-31-16-42-11-12-80-81-101-121-21-41-35-75-35-93v-19l-712-2c0 0-30-4-47 17-18 20-21 73-21 73" horiz-adv-x="1000" />

<glyph glyph-name="pick_country_btn_zoom_in" unicode="&#xe803;" d="M945 300h-395v-395h-100v395h-395v100h395v393h100v-393h395v-100z" horiz-adv-x="1000" />

<glyph glyph-name="pick_country_btn_zoom_out" unicode="&#xe804;" d="M55 400h888v-100h-888v100z" horiz-adv-x="1000" />

<glyph glyph-name="pick_country_btn_expand_r-01" unicode="&#xe805;" d="M353 780l400-412c10-10 10-25 0-35l-400-413c-10-10-25-10-35 0l-68 65c-10 10-10 25 0 35l300 313c10 10 10 25 0 35l-302 312c-10 10-10 25 0 35l70 68c10 7 25 7 35-3z" horiz-adv-x="1000" />

<glyph glyph-name="pick_country_btn_expand_l" unicode="&#xe806;" d="M648-80l-400 413c-10 10-10 25 0 35l400 412c10 10 25 10 35 0l67-65c10-10 10-25 0-35l-300-312c-10-10-10-25 0-35l303-313c10-10 10-25 0-35l-70-68c-10-7-25-7-35 3z" horiz-adv-x="1000" />

<glyph glyph-name="logo-01" unicode="&#xe807;" d="M727 406h4v-112h-4v112z m-469-67c0-9-4-13-10-15-5-2-15-4-26-4-10 0-19 2-25 4-6 2-9 6-9 15v67h-32l0-73c0-9 0-14 2-19 8-22 44-24 65-24 21 0 56 2 64 24 2 5 3 10 3 19l0 73h-32l0-67z m394 67h-18l0-112h31l0 112h-13z m-73 0v-66l-72 66h-31l0-112h31l0 67 73-67h29l0 112h-30z m-148-2c-10 4-26 7-49 7-23 0-40-3-50-7-21-7-23-26-23-54 0-27 2-47 23-54 10-4 27-6 50-6 23 0 39 2 50 6 21 7 22 27 22 54 0 28-2 47-23 54z m-22-81c-6-2-14-3-27-3-14 0-22 1-28 3-11 3-13 8-13 27 0 21 2 25 13 28 6 1 14 2 28 2 13 0 21-1 27-2 12-3 14-7 14-28 0-19-2-24-14-27z m-298 7l-33 24 60 52h-45l-62-54 0 54h-31l0-112h31v22l22 18 38-28c14-10 27-13 37-13 8 0 13 2 13 2v26c-13 0-25 5-30 9m667 74c-1 1-3 2-5 2h-10c-2 0-4-1-5-2-1-1-2-3-2-5l0-33v-15c0-4 0-4-1-6 0-2-2-7-8-8v-8c0 0 3 1 7 3 3 2 6 5 8 10 1 2 1 7 1 17h10v-21c0-1-1-2-2-2h-7l0-6h9c2 0 4 0 5 2 1 1 2 3 2 5v61c0 3-1 5-2 6z m-5-39h-10l0 14h10v-14z m0 20h-10v13c0 1 1 2 3 2h5c1 0 2-1 2-2v-13z m53 19h-8c-1-3-4-7-7-11h9c3 4 5 7 6 11m-27-11c-3 4-5 8-6 11h-7c1-3 2-7 4-11h9z m18-20h10v6h-22c0 1 1 4 2 6h18v6h-17c1 4 2 9 2 15h-7c0-5-1-9-2-15h-16v-6h14c0-2-1-4-2-6h-14v-6h11c-3-4-7-8-12-13h10c4 4 7 8 10 13h7c3-5 6-10 9-13h11c-6 5-10 10-12 13m6-18c-1 2-3 2-5 2h-10c1 3 1 5 1 8h-8c0-2 0-5 0-8h-15v-5h14l-1-3c0-3-2-11-14-11l0-7c0 0 14-2 19 8 0 0 2 3 3 8 0 0 1 2 1 5h8c0 0 1 0 1-1 1 0 1-1 1-2v-10c0-2-1-3-3-3h-9v-6h11c6 0 8 3 8 8v11c0 3 0 5-2 6m79-13c-1 1-2 2-4 5h-9c2-4 4-6 6-8 9-11 17-9 17-9l0 7c-6 1-9 4-10 5z m7 10c1 1 2 3 2 5v6c0 2-1 3-2 4-1 2-2 2-4 2h-55c-2 0-3-1-5-2-1-1-1-2-1-4v-6c0-2 0-3 1-4 2-2 3-2 5-2h23v-13c0 0 0 0 0-1-1 0-1 0-2 0h-6v-7h9c2 0 4 1 5 2 2 1 2 4 2 6v13h23c2 0 3 0 5 1z m-6 6c0 0 0-1-1-1 0 0 0-1 0-1h-49c-1 0-2 1-2 2v4c0 1 1 2 2 2h48c1 0 2-1 2-2v-4z m-22 20c-1 2-1 4-2 5h24c2 0 4 0 5 2 2 1 3 3 3 5v8c0 2-1 4-2 6-2 1-4 2-6 2h-52c-2 0-4-1-6-2-1-2-2-4-2-6v-6c0-6 3-9 9-9h19l1-5h-33v-5h76v5h-34v0z m-30 21c0 0 0 1 1 1 0 0 1 1 1 1h48c0 0 1-1 1-1 0 0 1-1 1-1v-2h-52v2z m2-11c0 0-1 0-1 1-1 0-1 1-1 1v2h52v-2c0-1-1-1-1-1-1-1-1-1-2-1h-47z m-3-46c0-1-4-4-9-5l0-7c0 0 8-2 17 9 2 2 4 4 6 8h-9c-2-3-4-4-5-5z m90 1c0 0 0 0 0 0s2 5 3 8c1 4 2 7 2 8 0 3-2 5-5 5h-6c6 10 9 15 9 18 0 1 0 2-1 3-1 0-2 1-3 1h-14v-6h9c1 0 1 0 1-1 0-1-3-6-8-16-1 0-1-1-1-1 0-3 1-4 4-4h6c1 0 1 0 1-1 0-1-1-4-3-10-1-2-2-4-3-6 0-1-4-5-9-4v-7c0 0 12-1 16 7 0 0 0 0 0 0 3-1 7-3 8-4 20-7 33-8 54-6l0 12c0 0-32-11-60 4m49 23v3c5 5 8 7 8 9 1 1 2 2 2 3 0 1-1 2-2 3-1 1-2 1-3 1h-23v-6h18c1 0 1 0 1 0 0 0-1-1-4-4-2-2-4-3-5-4v-5h-10v-6h10v-13c0-1 0-1-1-1h-6v-7h8c2 0 3 1 5 2 1 1 2 3 2 5v14h11v6l-11 0 0 0z m-46 24c-2 4-5 9-7 16h-8c1-6 3-11 6-16l9 0 0 0z m2-48h8c2 8 3 18 3 31h4c1 0 2-1 2-2v-21c0-2-1-2-3-2h-2v-6h5c2 0 4 0 5 2 1 1 2 2 2 4v24c0 5-2 7-7 7h-6l0 11h12v6h-6c-2 3-3 6-4 10h-8c1-4 2-7 3-10h-8v-6h4c0-13 0-22 0-29-1-7-2-13-4-19m34 52h21v6h-20c1 2 2 4 2 6h-7c-2-7-4-14-7-19h8c1 2 2 5 3 7" horiz-adv-x="1000" />

<glyph glyph-name="general_icn_contact_us-01" unicode="&#xe808;" d="M283 320l-8 8h-7c-80 0-95-50-95-115s42-115 95-115 95 50 95 115c0 7 0 7 0 15-50 57-80 92-80 92z m152-383c0 108-15 138-122 161 0 0-15-23-50-23s-50 23-50 23c-108-23-123-50-123-153 0-8 0-8 0-8s0-7 0-15c0 0 30-50 175-50 153 0 175 50 175 50-5 8-5 8-5 15 0-7 0-7 0 0z m378 803c-115 115-313 115-428 0s-122-305 0-420c0 0 203-202 203-443 0-7 7-7 7-7h8c7 0 7 0 7 7 23 226 195 443 195 443 123 118 123 305 8 420l0 0z m-218-332c-65 0-122 57-122 122s50 123 122 123c65 0 123-50 123-123 0-65-58-122-123-122l0 0z" horiz-adv-x="1000" />

<glyph glyph-name="general_icn_facebook-01" unicode="&#xe809;" d="M353-150h200c0 0 0 278 0 500h150l22 200h-165v78c0 35 28 50 43 50s115 0 115 0v172h-158c-172 0-215-127-215-207v-93h-92v-200h100c0-227 0-500 0-500z" horiz-adv-x="1000" />

<glyph glyph-name="general_icn_home_new-01" unicode="&#xe80a;" d="M930 350h-130v-363c0-20-5-37-25-37h-150v238c0 20-12 37-32 37h-150c-18 0-43-17-43-37v-238h-137c-20 0-38 17-38 37v363h-117c-25 0-33 18-13 30l395 340c20 13 45 15 65 0l390-342c18-18 13-28-15-28z" horiz-adv-x="1000" />

<glyph glyph-name="general_icn_ig-01" unicode="&#xe80b;" d="M808 850h-615c-108 0-193-95-193-202v-615c0-108 85-183 193-183h615c107 0 192 75 192 183v400 207c0 108-85 210-192 210z m-83-125h145 30v-175h-175v175z m-372-292c30 45 85 77 145 77s115-30 145-77c22-30 30-63 30-100 0-100-78-178-178-178s-177 78-177 178c5 37 20 77 35 100z m547-408c0-55-37-100-92-100h-615c-55 0-93 45-93 100v400h145c-15-25-22-57-22-97 0-155 122-275 277-275s278 120 278 275c0 37-8 72-23 97h145v-400z" horiz-adv-x="1000" />

<glyph glyph-name="general_icn_question" unicode="&#xe80c;" d="M556 121c-10-10-22-15-34-15-15 0-27 5-36 12-10 10-15 22-15 36s5 27 15 37 21 14 36 14 26-5 36-14 15-22 15-37c-3-14-8-26-17-33l0 0z m125 309c-7-15-17-27-26-36s-29-29-58-54c-8-7-15-12-20-19-4-5-7-10-9-14s-5-10-5-13c0-4-3-12-5-21-5-24-17-34-39-34-12 0-21 5-29 12-7 7-12 19-12 34 0 19 3 34 10 48 5 15 14 27 24 36s22 22 39 37c14 12 24 21 31 29 7 7 12 14 17 21s7 17 7 27c0 17-7 34-19 46s-31 19-51 19c-24 0-43-7-53-19-12-12-22-32-29-56-7-24-22-38-43-38-12 0-24 4-32 12-9 9-12 19-12 29 0 21 7 43 20 65 14 22 33 39 60 53s55 22 92 22c31 0 60-5 84-17s44-29 58-48c15-22 20-44 20-68-10-22-13-39-20-53l0 0z m-157-537c-258 0-468 211-468 469 0 256 210 464 468 464s469-210 469-466c0-256-210-467-469-467z m0 860c-217 0-396-176-396-393 0-218 179-397 396-397s396 179 396 397c0 217-178 393-396 393z" horiz-adv-x="1000" />

<glyph glyph-name="general_icn_pick_country" unicode="&#xe80d;" d="M949 538c-48 114-130 196-246 244-58 25-116 37-179 37s-123-12-179-37c-113-48-198-130-246-244-24-58-36-115-36-178s12-123 36-179c48-114 133-196 246-247 58-24 116-36 179-36s123 12 179 36c113 49 198 133 246 247 24 58 37 116 37 179 2 65-13 123-37 178l0 0z m-577 199c-41-51-70-114-87-194h-121c44 87 119 157 208 194l0 0z m-251-375c0 44 7 87 22 128h132c-7-43-9-84-9-128 0-41 2-82 9-125h-132c-17 41-22 82-22 125l0 0z m43-181h121c19-80 48-145 87-193-92 36-167 104-208 193l0 0z m334-222c-34 9-63 33-92 72-27 39-48 90-63 148h155v-220z m0 275h-167c-7 46-10 87-10 126 0 43 3 84 12 128h167v-254h-2z m0 312h-155c15 58 36 106 65 145s58 62 90 72l0-217z m389 0h-121c-20 77-49 142-87 193 89-39 164-109 208-193l0 0z m-334 217c34-10 63-34 90-72s48-87 65-145h-155l0 217 0 0z m0-275h167c7-44 12-85 12-128 0-39-2-82-10-126h-166v254h-3z m0-529v220h155c-15-58-36-107-65-148-27-39-56-63-90-72l0 0z m126 24c41 51 70 116 87 193h121c-42-84-116-152-208-193l0 0z m232 251h-133c7 44 9 85 9 126s-2 84-9 128h133c14-41 21-82 21-128-2-41-7-82-21-126l0 0z" horiz-adv-x="1000" />

<glyph glyph-name="coach" unicode="&#xe80e;" d="M870 231c0-49-40-90-90-90s-90 41-90 90c0 50 40 91 90 91s90-41 90-91m-31 0c0-32-26-58-59-58-32 0-58 26-58 58 0 33 26 59 58 59 33 0 59-26 59-59m-32 0c0-14-12-26-27-26s-26 12-26 26 12 27 26 27 27-12 27-27m-723 376h712c0 0 82-10 123-87 41-77 58-135 61-173 1-16 2-41 2-63 1-30-24-55-54-55h-855c-28 0-50 22-51 50l-2 167 16 118c3 25 23 43 48 43m785-41l48 1 13 1c18 0 35-7 46-21l28-34c7-8 1-20-9-20-8 0-15 3-21 9l-17 18c-8 9-19 14-31 14h-37l-20 32z m-782-31l-21-96c-2-9 5-17 14-17h589v147c0 0-420 0-542-2-19 0-35-14-40-32m620 31v-143l50-8c3-1 7-2 9-3l175-63c1 14-25 112-61 164-35 48-55 53-72 53h-101z m241-258v-35c0 0-24-4-43 11-18 15 43 24 43 24m-701-77c0-49-40-90-90-90-50 0-90 41-90 90 0 50 40 91 90 91 50 0 90-41 90-91m-31 0c0-32-27-58-59-58-32 0-58 26-58 58 0 33 26 59 58 59 32 0 59-26 59-59m-32 0c0-14-12-26-27-26s-26 12-26 26 12 27 26 27 27-12 27-27m264 0c0-49-41-90-91-90-49 0-90 41-90 90 0 50 41 91 90 91 50 0 91-41 91-91m-32 0c0-32-26-58-59-58-32 0-58 26-58 58 0 33 26 59 58 59 33 0 59-26 59-59m-32 0c0-14-12-26-27-26s-26 12-26 26 12 27 26 27 27-12 27-27m488 0c0-49-40-90-90-90-50 0-90 41-90 90 0 50 40 91 90 91 50 0 90-41 90-91m-32 0c0-32-26-58-58-58-32 0-59 26-59 58 0 33 27 59 59 59 32 0 58-26 58-59m-32 0c0-14-12-26-26-26s-27 12-27 26 12 27 27 27 26-12 26-27" horiz-adv-x="1000" />

<glyph glyph-name="train" unicode="&#xe80f;" d="M942 318c0 0-145 162-155 179-10 18-152 85-152 85s-142 3-150-2c-7-5-434-133-434-133l-7-72 611-210h210c20 0 92 18 92 18s23 45 23 52c0 8-38 83-38 83m-904 148c-8-3-14-10-14-19l0-61c0-7 2-19 19-25 0 0 35-13 53-19 36-14 74-27 111-41 144-52 265-95 392-133 38-12 81-20 129-24 37-2 78-4 128-5 1 0 3 0 5 0 28 0 52 4 73 12 52 21 73 66 54 120-13 37-33 70-53 102l-2 4c-25 41-93 139-188 185-70 35-138 42-182 42-28 0-48-3-55-5-16-3-36-8-56-14l-42-11-372-108z m26-52l581-74c1 0 1 0 1 0 2 0 3 1 4 2 1 2 1 4 0 6-3 4-75 106-162 106-1 0-1 0-1 0l-377-9 331 96c27 8 55 15 76 19 3 1 21 4 46 4 21 0 46-2 75-8-34-1-46-7-53-12-6-5-9-12-9-20-1-27 116-136 117-137 15-14 39-38 73-45 52-12 114 0 114 0l24 4 19-31c-13 1-29 0-45-1-61-4-97-20-110-48-11-24-3-52 24-85-22 1-42 2-61 3-45 4-85 11-121 22-126 38-246 81-389 133-37 13-75 27-112 40-15 6-30 12-45 17v18z m404 39c39 2 77-8 110-30 5-2 9-5 12-8 11-9 26-24 38-38 11-12 1-32-15-30-138 16-573 61-567 65 2 2 5 4 7 7 14 14 32 22 52 23l363 11z m192 107c0 0 63 5 147-78 85-82 98-109 90-122-7-12-20-12-55-17-35-5-99 0-134 32-35 32-115 115-115 115s-45 49 0 65c35 12 67 5 67 5m200-315c11-32 44-57 73-57 29 0 43 26 32 58-12 31-44 57-73 57-29 0-43-26-32-58m-814 97l683-251c28-11 23-52-6-55-1 0-2 0-2 0-11 0-696 296-696 296 3 9 12 13 21 10" horiz-adv-x="1000" />

<glyph glyph-name="general_icn_search-01" unicode="&#xe810;" d="M960 33l-272 272c30 53 45 113 45 173 0 205-165 370-370 370-203 0-368-165-368-370 0-205 165-370 370-370 60 0 120 15 173 45l272-273c23-23 45-30 75-30s53 7 75 30c45 47 45 115 0 153z m-595 287c-90 0-157 75-157 158 0 82 67 157 157 157s158-67 158-157c0-83-68-158-158-158z" horiz-adv-x="1000" />

<glyph glyph-name="general_icn_small_arrow_down-01" unicode="&#xe811;" d="M500 48l-500 500h1000l-500-500z" horiz-adv-x="1000" />

<glyph glyph-name="holiday_tour_icn_day-01" unicode="&#xe812;" d="M500 645c163 0 295-132 295-295s-132-295-295-295-295 133-295 295 130 295 295 295z m208-580c-18-12-38-25-58-35l145-88-37 166c-15-15-33-28-50-43z m-415 570c17 13 37 25 55 33l-143 87 38-162c15 15 32 30 50 42z m557-327c-2-23-7-43-15-65-7-23-15-43-27-63l167 15-125 113z m-685 152c8 20 15 40 25 60l-165-15 125-110c3 20 8 43 15 65z m685-67l128 110-168 15c10-20 20-40 25-60 5-20 10-43 15-65z m-700-88l-125-110 168-15c-10 20-20 40-28 60-7 23-12 45-15 65z m608 285l37 165-145-87c20-10 38-20 58-33 17-12 35-27 50-45z m-515-482l-38-163 143 85c-20 10-40 20-58 35-15 13-32 28-47 43z m322 587l-65 155-65-155c20 5 43 8 65 8s45-3 65-8z m-130-692l65-153 65 153c-22-6-45-6-67-6-20 0-43 3-63 6z" horiz-adv-x="1000" />

<glyph glyph-name="holiday_tour_icn_night-01" unicode="&#xe813;" d="M458-150v150l-143-145-22 22h-33l3 203-105-105-43 43 105 107-202-2v32l-23 23 145 142h-148v60h148l-148 145 23 23v32l203-2-105 105 42 42 105-105v205h33l22 23 143-145v150h60v-148l142 145 25-25h33l-3-202 105 105 43-43-105-105 202 3v-33l23-22-145-143h147v-60h-147l145-142-23-23v-32l-200-3 105-105-45-45-105 105 3-203h-33l-22-22-143 145v-150h-62z m-135 293v-193l135 138v190l-135-135z m197-55l135-138-2 195-135 135v-192h2z m178 97l195-2-138 135h-190l133-133z m-610 0l195 3 135 135h-193l-137-138z m610 333l-135-135h190l137 135-192 0z m-473-135h190l-135 135-195 2 140-137z m295 232v-190l135 135 3 195-138-140z m-197-55l135-135v190l-135 138v-193z" horiz-adv-x="1000" />

<glyph glyph-name="holidays_tour_btn_left-01" unicode="&#xe814;" d="M713 738l-388-388 388-388-18-17-407 405 407 405 18-17z" horiz-adv-x="1000" />

<glyph glyph-name="holidays_tour_btn_down-01" unicode="&#xe815;" d="M113 563l387-388 388 388 17-18-405-407-405 407 18 18z" horiz-adv-x="1000" />

<glyph glyph-name="holidays_tour_btn_right-01" unicode="&#xe816;" d="M288-38l387 388-387 388 17 17 408-405-408-405-17 17z" horiz-adv-x="1000" />

<glyph glyph-name="holidays_tour_btn_up-01" unicode="&#xe817;" d="M888 138l-388 387-387-387-18 17 405 408 405-408-17-17z" horiz-adv-x="1000" />

<glyph glyph-name="holidays_tour_icn_heart" unicode="&#xe818;" d="M543-150l-76 77c-284 250-467 416-467 623 0 167 130 300 300 300 93 0 183-43 243-113 60 70 154 113 244 113 166 0 300-130 300-300 0-207-184-377-467-627l-77-73z m0 0" horiz-adv-x="1087" />

<glyph glyph-name="home_icn_contact_us-01" unicode="&#xe819;" d="M120 10c0 8 0 3 0 0l0 0z m373 350c107 0 195 108 195 238s-30 237-195 237c-168 0-195-107-195-237s85-238 195-238l0 0z m367-352c-2 230-32 295-262 335 0 0-33-40-108-40s-107 40-107 40c-225-43-258-105-260-328 0-18 0-20 0-18 0-5 0-10 0-25 0 0 55-110 370-110s370 110 370 110c0 8 0 15 0 18-3 0-3 2-3 18l0 0z" horiz-adv-x="1000" />

<glyph glyph-name="home_icn_pin-01" unicode="&#xe81a;" d="M495 850c-175 0-320-142-320-320 0-77 28-145 73-202 15-18 40-48 50-65 72-110 165-268 190-398 2-10 5-15 7-15 3 2 5 7 8 15 27 130 117 290 190 398 12 17 37 47 50 65 45 55 72 125 72 202 0 178-145 320-320 320z m0-415c-55 0-100 45-100 100s45 100 100 100 100-45 100-100c0-52-45-100-100-100z" horiz-adv-x="1000" />

<glyph glyph-name="general_icn_close-01" unicode="&#xe81b;" d="M973 768l-28 22-427-432-428 432-27-22 432-433-432-430 27-23 428 428 427-428 28 23-433 430 433 433z" horiz-adv-x="1000" />

<glyph glyph-name="general_icn_calendar-01" unicode="&#xe81c;" d="M918 755h-135v65c-3 15-15 30-33 30s-30-15-30-30v-62h-187v62c-3 15-15 30-33 30s-30-15-30-30v-62h-187v62c-3 15-15 30-33 30s-30-15-30-30v-62h-137c-45-3-83-38-83-85v-741c0-45 38-82 83-82h832c45 0 83 37 83 82v741c2 47-35 82-80 82z m20-823c0-12-10-20-20-20h-835c-13 0-20 10-20 20v741c0 12 10 20 20 20h135v-63c2-15 15-30 32-30s30 15 30 30v65h188v-62c0-18 15-30 30-30s30 15 30 30v62h187v-62c0-18 15-30 30-30s30 15 30 30v62h135c13 0 20-10 20-20v-743z m-720 543h125v-95h-125v95z m0-157h125v-93h-125v93z m0-155h125v-95h-125v95z m220 0h125v-95h-125v95z m0 155h125v-93h-125v93z m0 157h125v-95h-125v95z m217-312h125v-95h-125v95z m0 155h125v-93h-125v93z m0 157h125v-95h-125v95z" horiz-adv-x="1000" />

<glyph glyph-name="general_icn_arrow_top-01" unicode="&#xe81d;" d="M500 683l500-665h-1000l500 665z" horiz-adv-x="1000" />

<glyph glyph-name="general_icn_arrow_down-01" unicode="&#xe81e;" d="M500 18l-500 665h1000l-500-665z" horiz-adv-x="1000" />

<glyph glyph-name="footer_icn_weibo" unicode="&#xe81f;" d="M100-150h243c45 12 90 35 125 67 42 35 70 80 57 138-10 48-45 78-82 100-38 23-155 58-295 23-58-13-110-40-148-78v-150c3-55 45-100 100-100z m-22 150c0 3 0 3 0 3 20 80 115 135 195 110 42-13 70-53 70-100 0-16-8-36-13-53-30-70-115-115-190-90-52 22-80 75-62 130z m142-3c8 0 10 3 13 8v3c0 7-8 12-13 12-2 0-10-2-12-7v-3c-3-5 5-13 12-13z m680 853h-800c-55 0-100-45-100-100v-532c8 0 10 2 13 10 7 10 10 22 15 32 12 30 22 58 37 83 8 10 13 20 23 25 12 10 32 2 32-13 3-15 0-35 0-52 0-23 15-33 33-20 12 12 25 30 37 45 25 32 53 67 80 100 13 15 23 22 43 30 20 7 37-8 35-25 0-15-8-30-10-43-3-22-13-42-15-65 0-7 2-22 10-25 2-2 20-2 25 0 12 10 25 20 35 30 32 25 57 55 90 80 12 13 20 15 37 20 13 0 35-7 33-20-3-12-8-25-13-37-10-23-22-45-32-70-8-20 7-33 25-25 12 2 25 12 35 20 32 22 65 45 102 55 0-3 35 7 45-8 13-15 0-30-7-42-13-15-25-33-38-48-20-22-22-45-10-72 35-80 33-158-25-228-30-38-70-65-112-88-13-7-23-10-35-15h412c55 0 100 45 100 100v798c3 55-42 100-100 100z m-202-477c-20-8-38 7-43 25-10 52-47 92-100 102-15 3-30 23-25 43 3 15 23 30 43 25 77-15 137-78 155-155 2-18-10-38-30-40z m132-3c-20 0-35 15-35 35 0 128-102 230-230 230-20 0-35 15-35 35 0 20 15 35 35 35 163 0 298-132 298-297 0-20-18-35-33-38z m-672-445c22 0 42 15 47 42 0 3 0 8 0 10 0 20-15 38-35 38-22 0-42-20-47-43 0-2 0-7 0-10 2-22 17-37 35-37z" horiz-adv-x="1000" />

<glyph glyph-name="footer_icn_facebook_new" unicode="&#xe820;" d="M898 845h-795c-55 0-98-45-98-97v-796c0-55 45-97 98-97h795c55 0 97 45 97 97v796c0 55-40 97-97 97z m-45-545h-150v-348h-150v348h-98v150h98v125c0 95 80 175 175 175h122v-2-150h-97c-28 0-50-20-50-50v-98h150v-150z" horiz-adv-x="1000" />

<glyph glyph-name="general_map_pin-01" unicode="&#xe821;" d="M488-150c80 353 310 458 310 690 0 173-140 310-310 310s-310-137-310-310c0-232 230-337 310-690z" horiz-adv-x="1000" />

<glyph glyph-name="general_icn_weibo-01" unicode="&#xe822;" d="M448 318c-78 17-160-18-195-83-35-70 0-142 77-165 78-22 170 13 205 88 30 67-12 142-87 160z m-60-170c-18-23-48-35-70-23-23 13-30 40-18 65 18 23 48 35 70 23 23-13 30-43 18-65z m47 65c-7-13-17-13-30-13-12 5-12 13-5 23 5 12 18 12 30 12 10-5 10-17 5-22z m370 217c18-5 35 5 40 18 13 40 5 87-22 122-30 35-78 48-118 35-17-5-30-17-22-35 5-17 17-30 35-22l0 0c17 5 40 0 60-18s17-40 12-60l0 0c-7-17 3-35 15-40z m-130 305l0 0c-17-5-35-22-30-40s23-35 40-30c60 13 130-5 170-52 48-48 60-118 35-178l0 0c-5-17 5-40 23-47 17-5 40 5 47 22l0 0c30 83 13 178-52 248-50 67-143 97-233 77z m73-370c-13 5-23 5-18 23 18 40 18 70 0 95-30 47-117 40-212 0 0 0-30-13-23 12 18 48 13 88-12 113-53 52-195 0-313-123-87-87-142-187-142-270 0-160 200-253 400-253 260 0 435 153 435 271 2 80-63 120-115 132z m-320-342c-160-18-295 60-305 160-13 105 112 200 270 217 160 18 295-60 305-160 7-105-110-205-270-217z" horiz-adv-x="1000" />

<glyph glyph-name="general_icn_share-01" unicode="&#xe823;" d="M441 193c-1-3-3-7-4-10-9-18-10-38-7-58 7-53 56-90 107-90 57 1 116 55 102 126-15 79-103 114-168 66-5-4-8-4-13-1-26 15-52 30-78 45-13 7-24 14-37 21 20 36 22 72 3 109-1 1 1 6 2 7 9 8 18 14 27 20 26 20 51 39 77 59 1-1 4-3 5-5 32-33 71-43 115-26 42 15 65 47 70 92 6 65-53 122-118 114-67-9-109-72-91-137 2-6 0-8-3-11-22-15-42-31-63-47-16-13-31-24-47-36-24 18-52 25-80 22-63-6-106-71-90-132 19-71 100-103 162-63 5 4 9 4 15 0 18-11 36-21 54-31 20-10 40-21 60-34z" horiz-adv-x="789" />

<glyph glyph-name="footer_icn_wechat" unicode="&#xe824;" d="M1314 845h-795c-55 0-98-45-98-97v-796c0-55 46-97 98-97h795c55 0 98 45 98 97v796c0 55-40 97-98 97z m-571-626c-9 0-19-1-26-5-24-13-47-28-74-45 5 22 8 42 14 61 4 14 2 22-11 31-82 58-117 145-91 235 24 83 83 133 163 160 110 36 233-1 300-88 24-32 39-67 43-109-69-3-129-24-177-71-49-48-72-106-65-178-27 3-52 7-76 9z m483-113c-21-19-28-34-15-59 3-5 3-11 4-16-21 9-41 24-63 26-21 2-43-10-65-12-68-7-128 12-178 58-95 88-81 222 28 294 98 64 241 43 310-46 60-77 53-180-21-245z m-258 216c-15 0-27-12-26-27 0-13 12-24 26-24 13 0 25 10 25 24 1 15-11 27-25 27z m-254 197c-17 1-32-13-32-30-1-17 13-31 30-31 17-1 32 13 33 29 0 17-14 32-31 32z m196-61c18 0 31 13 31 31 0 17-14 30-31 30-17 0-32-15-31-31 0-17 14-31 31-30z m217-136c-13 0-24-11-25-25-1-14 11-26 25-26 14 0 25 10 25 24 1 15-10 27-25 27z" horiz-adv-x="1778" />

<glyph glyph-name="hotel" unicode="&#xe825;" d="M719 756c0 19-15 34-34 34h-369c-19 0-34-15-34-34v-47h437v47z m161-814h-74v691c0 19-15 34-34 34h-543c-19 0-34-15-34-34v-691h-73c-19 0-34-15-34-34v-33h284v138c0 8 7 15 15 15h75c8 0 15-7 15-15v-138h47v138c0 8 7 15 15 15h75c8 0 15-7 15-15v-138h284v33c0 19-15 34-33 34m-510 125c0-8-6-14-14-14h-76c-8 0-14 6-14 14v76c0 8 6 14 14 14h76c8 0 14-6 14-14v-76z m0 153c0-8-6-15-14-15h-76c-8 0-14 7-14 15v75c0 8 6 15 14 15h76c8 0 14-7 14-15v-75z m0 152c0-8-6-15-14-15h-76c-8 0-14 7-14 15v75c0 8 6 15 14 15h76c8 0 14-7 14-15v-75z m0 152c0-8-6-15-14-15h-76c-8 0-14 7-14 15v75c0 9 6 15 14 15h76c8 0 14-6 14-15v-75z m183-457c0-8-7-14-15-14h-75c-8 0-15 6-15 14v76c0 8 7 14 15 14h75c8 0 15-6 15-14v-76z m0 153c0-8-7-15-15-15h-75c-8 0-15 7-15 15v75c0 8 7 15 15 15h75c8 0 15-7 15-15v-75z m0 152c0-8-7-15-15-15h-75c-8 0-15 7-15 15v75c0 8 7 15 15 15h75c8 0 15-7 15-15v-75z m0 152c0-8-7-15-15-15h-75c-8 0-15 7-15 15v75c0 9 7 15 15 15h75c8 0 15-6 15-15v-75z m182-457c0-8-6-14-14-14h-76c-8 0-14 6-14 14v76c0 8 6 14 14 14h76c8 0 14-6 14-14v-76z m0 153c0-8-6-15-14-15h-76c-8 0-14 7-14 15v75c0 8 6 15 14 15h76c8 0 14-7 14-15v-75z m0 152c0-8-6-15-14-15h-76c-8 0-14 7-14 15v75c0 8 6 15 14 15h76c8 0 14-7 14-15v-75z m0 152c0-8-6-15-14-15h-76c-8 0-14 7-14 15v75c0 9 6 15 14 15h76c8 0 14-6 14-15v-75z" horiz-adv-x="1000" />

<glyph glyph-name="flight" unicode="&#xe826;" d="M878 518c43 37 73 79 80 112 2 11 2 20-1 27 0 1-1 3-2 5-2 3-3 4-4 5-5 5-13 9-24 12-33 7-84-3-136-27-42-19-86-49-147-91-11-7-21-15-33-22l-90 50 0 0c5 3 8 8 9 14 2 5 1 11-2 16l-14 22c-3 5-8 8-14 9-6 2-12 0-17-3l-32-20-13 7c4 3 7 7 8 12 1 6 0 12-3 17l-14 21c-3 5-8 9-14 10-6 1-12 0-16-3l-30-19-92 51c-2 1-4 2-6 2-7 2-14 1-20-3l-42-27c-5-3-8-8-9-13-2-8 1-15 6-20l182-160c1-1 3-4 4-5l46-72c-67-46-129-92-177-132-5-4-9-8-14-12l-156 50c-1 0-2 0-3 0-8 2-15 0-22-3l-19-13c-5-3-9-8-10-13-1-8 2-16 8-21l101-77c1-1 3-4 4-5l7-11c-5-7-8-14-9-20-2-9-1-17 3-23l0 0 1 0c4-7 10-11 19-13 6-1 13-1 22 0l7-11c1-1 2-4 2-5l29-124c2-8 8-14 16-16l0 0c5-1 11 0 16 3l20 13c6 4 10 11 12 18 0 1 0 2 0 2l20 164c5 2 11 5 16 7 57 28 124 65 194 107l46-71c1-2 3-5 3-6l71-232c2-7 7-13 15-14 5-1 11 0 16 3l42 27c6 4 9 10 11 17 1 2 1 4 1 7l-9 104 30 19c5 3 8 8 9 14 2 6 0 12-3 17l-13 21c-4 5-9 8-14 10-5 1-10 0-15-2l-1 15 32 20c5 3 8 8 10 14 1 6 0 12-3 17l-14 21c-3 5-8 8-14 10-6 1-12 0-17-3l0 0-8 102c12 8 23 15 34 21 64 39 109 67 144 97" horiz-adv-x="1000" />

<glyph glyph-name="about_tour_icn_print" unicode="&#xe827;" d="M275 744h450v-113h-450v113z m619-169h-788a56 56 0 0 1-56-56v-281a56 56 0 0 1 56-57h169v-225h450v225h169a56 56 0 0 1 56 57v281a56 56 0 0 1-56 56z m-225-562h-338v281h338v-281z m237 478a41 41 0 1 0-40 40 41 41 0 0 0 40-40z" horiz-adv-x="1000" />

<glyph glyph-name="general_checkbox_tick" unicode="&#xe828;" d="M870 738l-498-614-242 242a76 76 0 0 1-108-108l297-296a76 76 0 0 1 107 0l0 0 552 668a76 76 0 0 1-108 108h0z m0 0" horiz-adv-x="1000" />

<glyph glyph-name="general_icn_alert" unicode="&#xe829;" d="M828 556l26 34a41 41 0 0 1-7 58l-68 51a41 41 0 0 1-57-8l-27-34a438 438 0 0 0 116-83c6-6 12-12 17-18h0z m0 0m-328 147a448 448 0 0 0 54-3v47h32a41 41 0 0 1 41 41v21a41 41 0 0 1-41 41h-173a41 41 0 0 1-41-41v-21a41 41 0 0 1 41-41h33v-47a448 448 0 0 0 54 3h0z m0 0m0-852a411 411 0 0 1 54 819 407 407 0 0 1-54 4 425 425 0 0 1-54-4 411 411 0 0 1 54-819h0z m113 698a308 308 0 0 0 191-242 311 311 0 0 0 4-45h-310v308h2a309 309 0 0 0 113-22h0z m0 0" horiz-adv-x="1000" />

<glyph glyph-name="general_icn_dot" unicode="&#xe82a;" d="M1000 350a500 500 0 1 0-500 500 500 500 0 0 0 500-500z" horiz-adv-x="1000" />

<glyph glyph-name="general_icn_download" unicode="&#xe82b;" d="M699 594l129-129-328-328-328 328 130 129 107-107v363h182v-363z m-525-561h652v-183h-652v183z" horiz-adv-x="1000" />

<glyph glyph-name="general_icn_heart" unicode="&#xe82c;" d="M950 497a243 243 0 0 1-450 127 243 243 0 1 1-367-310l345-345a31 31 0 0 1 44 0l345 345a242 242 0 0 1 83 183z" horiz-adv-x="1000" />

<glyph glyph-name="general_icn_more" unicode="&#xe82d;" d="M500 600a125 125 0 1 1-125 125 125 125 0 0 1 125-125h0z m0-125a125 125 0 1 1 125-125 125 125 0 0 1-125 125h0z m0-375a125 125 0 1 1 125-125 125 125 0 0 1-125 125h0z m0 0" horiz-adv-x="1000" />

<glyph glyph-name="general_icn_promotion" unicode="&#xe82e;" d="M754 796c-9 0-17-5-25-16-1-1-88-114-306-181a314 314 0 0 0-56-14c-12-2-15 1-16 3a38 38 0 0 1-33 20h-216a39 39 0 0 1-38-39v-14a8 8 0 0 0-9-9l-5-1a55 55 0 0 1-50-54v-144a55 55 0 0 1 50-54l7 0c2 0 6-2 6-10v-14a39 39 0 0 1 39-38h17a9 9 0 0 0 8-8l60-272a63 63 0 0 1 59-47h69a42 42 0 0 1 43 53l-58 266a6 6 0 0 0 6 8h12a41 41 0 0 1 33 20c3 5 10 4 14 3 21-4 41-9 58-14 218-67 305-181 306-182 8-10 16-16 25-16a20 20 0 0 1 17 12 45 45 0 0 1 4 20v691c0 30-18 31-21 31h0z m0 0m185-184a26 26 0 0 1-42-29 302 302 0 0 0 52-172 306 306 0 0 0-53-174 26 26 0 0 1 42-29 352 352 0 0 1 62 203 353 353 0 0 1-61 201h0z m0 0m-84-72a26 26 0 0 1-42-29 176 176 0 0 0 30-100 178 178 0 0 0-31-101 26 26 0 0 1 42-30 233 233 0 0 1 1 260h0z m0 0" horiz-adv-x="1000" />

<glyph glyph-name="general_icn_shopping" unicode="&#xe82f;" d="M989 554a50 50 0 0 0 10-40l-41-240a45 45 0 0 0-18-31 52 52 0 0 0-33-13h-611l-13-68h583a51 51 0 0 0 36-15 52 52 0 0 0 0-74 51 51 0 0 0-36-15h-644a51 51 0 0 0-40 19 54 54 0 0 0-12 43l27 150-42 422-119 37a49 49 0 0 0-30 25 55 55 0 0 0-4 40 49 49 0 0 0 26 30 54 54 0 0 0 39 4l152-48a47 47 0 0 0 24-16 58 58 0 0 0 12-28l9-84 690-77a49 49 0 0 0 35-21h0z m-689-524a79 79 0 0 0 79-80 79 79 0 0 0-23-57 79 79 0 0 0-112 0 78 78 0 0 0-23 57 79 79 0 0 0 79 80h0z m471 0a79 79 0 0 0 79-80 79 79 0 0 0-23-57 79 79 0 0 0-112 0 78 78 0 0 0-23 57 79 79 0 0 0 79 79h0z m0 0" horiz-adv-x="1000" />

<glyph glyph-name="general_radio_off" unicode="&#xe830;" d="M500-150a500 500 0 1 0 500 500 501 501 0 0 0-500-500z m0 980a480 480 0 1 1 480-480 481 481 0 0 1-480 480z" horiz-adv-x="1000" />

<glyph glyph-name="general_radio_on" unicode="&#xe831;" d="M500-150a500 500 0 1 0 500 500 501 501 0 0 0-500-500z m0 980a480 480 0 1 1 480-480 481 481 0 0 1-480 480z m200-480a200 200 0 1 0-200 200 200 200 0 0 0 200-200z" horiz-adv-x="1000" />

<glyph glyph-name="holidays_tour_icn_hotel" unicode="&#xe832;" d="M80 206v-160h-80v568a41 41 0 0 0 12 28 37 37 0 0 0 28 13 37 37 0 0 0 28-13 41 41 0 0 0 12-28v-328h920v-240h-80v160h-840z m74 265a73 73 0 0 0 0 104 71 71 0 0 0 52 21 74 74 0 0 0 53-21 71 71 0 0 0 0-104 74 74 0 0 0-53-21 71 71 0 0 0-52 21z m18-125q-37 0-37 30t37 31h148v113a37 37 0 0 0 37 37h4l580-56a80 80 0 0 0 42-19 48 48 0 0 0 17-38v-98h-828z" horiz-adv-x="1000" />

<glyph glyph-name="nav_bar_icn_menu" unicode="&#xe833;" d="M1000 584h-1000v70h1000v-70z m0-468h-1000v-70h1000v70z m0 269h-1000v-70h1000v70z" horiz-adv-x="1000" />

<glyph glyph-name="general_icn_wechat" unicode="&#xe834;" d="M1115 521c-108-5-201-38-277-112-77-74-112-166-103-279-42 5-80 11-119 14-13 2-29 0-40-6-37-21-73-45-116-72 8 35 13 66 22 96 6 22 3 34-17 48-129 92-183 228-143 369 38 130 131 209 257 250 171 56 364-1 469-138 38-49 61-104 67-170z m-496 44c1 26-21 49-47 50-28 0-50-20-51-47 0-27 20-49 48-49 27-1 49 20 50 46z m259 50c-27-1-49-23-49-49 1-27 23-48 50-48 28 1 48 22 48 49 0 27-22 48-49 48z m479-765c-34 15-66 38-99 41-33 4-68-15-103-19-105-11-200 19-278 91-149 137-127 348 44 461 153 100 377 66 485-73 94-121 83-281-32-383-33-30-45-54-24-93 4-7 4-16 7-25z m-388 376c21 0 39 17 40 38 1 23-17 42-40 42-23 0-41-19-41-42 1-21 19-38 41-38z m250 80c-21 0-39-17-40-38-1-23 17-42 39-42 22 0 39 16 40 38 1 23-17 42-39 42z" horiz-adv-x="1778" />

<glyph glyph-name="about_tour_icn_help" unicode="&#xe835;" d="M500-150a79 79 0 1 0 79 79 79 79 0 0 0-79-79z m129 476c-45-26-49-59-49-152q0-10 0-19a80 80 0 0 0-81-80h0a80 80 0 0 0-80 81q0 9 0 18c0 96 0 216 128 291 103 60 116 100 104 151-14 61-70 77-113 72-15-2-87-14-87-86a80 80 0 0 0-161 0c0 129 94 230 230 246 139 16 258-64 288-195 46-196-118-291-179-327z" horiz-adv-x="1000" />

<glyph glyph-name="about_tour_icn_pdf" unicode="&#xe836;" d="M426 282c0-47-27-67-56-67h-37v133h39c27 0 54-24 54-66z m-250 66h-43v-67h43a37 37 0 0 1 25 8 29 29 0 0 1 8 23c0 9-2 20-8 25a40 40 0 0 1-25 11z m524-233h-667a34 34 0 0 0-33 33v267a34 34 0 0 0 33 33h667a34 34 0 0 0 33-33v-267a34 34 0 0 0-33-33z m-450 200c0 19-6 36-17 47a74 74 0 0 1-50 20h-83v-200h33v67c34 0 30 0 45 0 22 0 43 5 55 16s17 29 17 49z m209-36c0 51-31 102-85 102h-74v-200h71c57 0 88 44 88 98z m174 102h-133v-200h33v67h100v33h-100v67h100v33z m95 405h-395a67 67 0 0 1-66-67v-204h66v204h367v-167a67 67 0 0 1 67-66h166v-505h-600v67h-66v-67a67 67 0 0 1 66-66h600a67 67 0 0 1 67 66v533z" horiz-adv-x="1000" />

<glyph glyph-name="footer_icn_email_new" unicode="&#xe837;" d="M500 208l-122 107-355-302c12-13 30-21 50-21h855c20 0 37 8 47 21l-350 302-125-107z m475 480c-12 12-30 20-47 20h-855c-20 0-38-8-50-20l477-410 475 410z m-975-43v-592l345 292-345 300z m655-300l345-292v592l-345-300z" horiz-adv-x="1000" />

<glyph glyph-name="enlarge_photo-01-01" unicode="&#xe838;" d="M364 374v-48c0-5-2-10-5-13-4-4-8-6-13-6l-190 0 30-30c3-3 5-8 5-13 0-5-2-9-5-13l-34-34c-4-4-9-6-13-6-5 0-10 2-13 6l-121 120c-7 7-7 19 0 26l121 120c7 7 18 7 26 0l34-34c3-4 5-8 5-13 0-5-2-9-5-13l-30-30 190 0c10 0 18-9 18-19h0z m631-11l-121 120c-7 7-18 7-25 0l-35-34c-3-4-5-8-5-13 0-5 2-9 5-13l31-30-191 0c-10 0-18-9-18-19v-48c0-5 2-10 5-13 4-4 8-6 13-6l191 0-31-30c-3-3-5-8-5-13 0-5 2-9 5-13l35-34c3-4 8-6 12-6 5 0 10 2 13 6l121 120c7 7 7 19 0 26z m-594 301c4-3 8-5 13-5 5 0 10 2 13 5l30 31v-191c0-5 2-9 6-13 3-3 8-5 13-5h48c10 0 19 8 19 18v191l30-31c4-3 8-5 13-5 5 0 9 2 13 5l34 35c7 7 7 18 0 25l-120 121c-7 7-19 7-26 0l-120-121c-4-3-6-8-6-13 0-4 2-9 6-12l34-35z m198-628c-4 3-8 5-13 5-5 0-9-2-13-5l-30-30v190c0 10-9 18-19 18h-48c-5 0-10-2-13-5-4-4-6-8-6-13v-190l-30 30c-3 3-8 5-13 5-5 0-9-2-13-5l-34-34c-4-4-6-9-6-13 0-5 2-10 6-13l120-121c7-7 19-7 26 0l120 121c7 7 7 18 0 26l-34 34z" horiz-adv-x="1000" />

<glyph glyph-name="general_star_icon" unicode="&#xe839;" d="M500 850c-276 0-500-224-500-500 0-276 224-500 500-500s500 224 500 500c0 276-224 500-500 500z m198-808l-208 110-209-110 40 232-169 165 233 34 105 211 104-211 233-34-169-165 40-232z" horiz-adv-x="1000" />
</font>
</defs>
</svg>
